2011年09月03日

録画失敗?再生動画のサイズが320x180しかない

PT2&ptTimerで録画しておいた「うさぎドロップ」をVLCプレーヤーで見ようとしたら、再生できなかった。
シークバーは動くんだけど、音も映像も出てこない。

「録画失敗した!?」とTSファイルのサイズを確認すると3.8GBある。
データは丸々あるようだけど・・・。

MPCで再生してみたら、320x180で再生できた。
が、汚い^^;
右上にTV局のマークもついてない。
アナログを録画?
アナログは7月に停波してるし、それはないか・・・。

MPCのプロパティからメディア情報を見てみると・・・。

正常時
Complete name : [省略]20110826-014500-うさぎドロップ<ノイタミナ> #08[字].ts
Format : MPEG-TS
File size : 3.66 GiB
Duration : 30mn 19s
Start time : UTC 2011-08-26 01:44:52
End time : UTC 2011-08-26 02:15:07
Overall bit rate : 17.3 Mbps
Network name : [省略]

Video #1
ID : 273 (0x111)
Menu ID : 1056 (0x420) / 1057 (0x421) / 1058 (0x422)
Format : MPEG Video
Format version : Version 2
Format profile : Main@High
Format settings, BVOP : Yes
Format settings, Matrix : Default
Codec ID : 2
Duration : 30mn 18s
Bit rate mode : Variable
Nominal bit rate : 24.0 Mbps
Width : 1 440 pixels
Height : 1 080 pixels

Display aspect ratio : 16:9
Frame rate : 29.970 fps
Standard : Component
Color space : YUV
Chroma subsampling : 4:2:0
Bit depth : 8 bits
Scan type : Interlaced
Scan order : Top Field First
Compression mode : Lossy
Bits/(Pixel*Frame) : 0.515

Video #2
ID : 337 (0x151)
Menu ID : 1440 (0x5A0)
Format : AVC
Format/Info : Advanced Video Codec
Format profile : Baseline@L1.2
Format settings, CABAC : No
Format settings, ReFrames : 2 frames
Codec ID : 27
Duration : 30mn 19s
Bit rate mode : Constant
Nominal bit rate : 219 Kbps
Width : 320 pixels
Height : 180 pixels
Display aspect ratio : 16:9
Frame rate mode : Variable
Color space : YUV
Chroma subsampling : 4:2:0
Bit depth : 8 bits
Scan type : Progressive

Audio #1
ID : 274 (0x112)
Menu ID : 1056 (0x420) / 1057 (0x421) / 1058 (0x422)
Format : AAC
Format/Info : Advanced Audio Codec
Format version : Version 2
Format profile : LC
Muxing mode : ADTS
Codec ID : 15
Duration : 30mn 19s
Bit rate mode : Constant
Bit rate : 192 Kbps
Channel(s) : 2 channels
Channel positions : Front: L R
Sampling rate : 48.0 KHz
Compression mode : Lossy
Delay relative to video : -160ms
Stream size : 41.6 MiB (1%)

Audio #2
ID : 338 (0x152)
Menu ID : 1440 (0x5A0)
Format : AAC
Format/Info : Advanced Audio Codec
Format version : Version 2
Format profile : HE-AAC / LC
Muxing mode : ADTS
Codec ID : 15
Duration : 30mn 18s
Bit rate mode : Constant
Bit rate : 45.8 Kbps
Channel(s) : 2 channels
Channel positions : Front: L R
Sampling rate : 48.0 KHz / 24.0 KHz
Compression mode : Lossy
Delay relative to video : 147ms
Stream size : 9.93 MiB (0%)

異常時
Complete name : [省略]20110902-004500-うさぎドロップ<ノイタミナ> #09[字].ts
Format : MPEG-TS
File size : 3.66 GiB
Duration : 30mn 19s
Start time : UTC 2011-09-02 00:44:52
End time : UTC 2011-09-02 01:15:07
Overall bit rate : 17.3 Mbps
Network name : [省略]

Video #1
ID : 273 (0x111)
Menu ID : 1056 (0x420) / 1057 (0x421) / 1058 (0x422)
Format : MPEG Video
Codec ID : 2
Compression mode : Lossy
Encryption : Encrypted

Video #2
ID : 337 (0x151)
Menu ID : 1440 (0x5A0)
Format : AVC
Format/Info : Advanced Video Codec
Format profile : Baseline@L1.2
Format settings, CABAC : No
Format settings, ReFrames : 2 frames
Codec ID : 27
Duration : 30mn 20s
Bit rate mode : Constant
Nominal bit rate : 219 Kbps
Width : 320 pixels
Height : 180 pixels
Display aspect ratio : 16:9
Frame rate mode : Variable
Color space : YUV
Chroma subsampling : 4:2:0
Bit depth : 8 bits
Scan type : Progressive

Audio #1
ID : 274 (0x112)
Menu ID : 1056 (0x420) / 1057 (0x421) / 1058 (0x422)
Format : AAC
Format/Info : Advanced Audio Codec
Codec ID : 15
Compression mode : Lossy
Encryption : Encrypted

Audio #2
ID : 338 (0x152)
Menu ID : 1440 (0x5A0)
Format : AAC
Format/Info : Advanced Audio Codec
Format version : Version 2
Format profile : HE-AAC / LC
Muxing mode : ADTS
Codec ID : 15
Duration : 30mn 19s
Bit rate mode : Constant
Bit rate : 48.0 Kbps
Channel(s) : 2 channels
Channel positions : Front: L R
Sampling rate : 48.0 KHz / 24.0 KHz
Compression mode : Lossy
Stream size : 10.4 MiB (0%)

VIDEO&AUDIOとも#1がおかしい。
ただ、ファイルサイズを見るとデータはあるらしい・・・。

月曜日にTVタックルを見る際に、カードリーダからカスカードを抜いて液晶TVに挿していた。
戻した際に、挿しこみが甘くて、カスカードを認識しなくて#1側が視聴できない状態になっているとかかな?

一応、ptTimerの配布元に行き、俺が使っているものより新しいものがあったのでダウンロード。
BonDriver_ptmr.dllとptTimer.exeだけを最新のものに置き換えて、念のためチャンネルスキャンを実施。カードリーダにカスカードを挿入しなおして、5分番組を録画してみた。

今回はきちんと1440x1080で録画できていることを確認。

挿入しなおす際、きちんとカスカードはきちんと入っていたように思うけど、やはりカスカードがいけなかったんだろうか?
もう、抜き差しするのは止しておくか。

ファイルサイズからして、#1に1440x1080のデータ自体はあると思うので、また時間があるときに調べてみようと思う。
とりあえず、1440x1080で録画できることが確認できたので、今のところは良しとしておこう。
小さくて汚いけど、MPCで見る事もできたし。
posted by ダメプロ at 22:22| Comment(1) | TrackBack(0) | PC | このブログの読者になる | 更新情報をチェックする
この記事へのコメント
PT2だと99%うまくいってる時でもTV局と番組制作によって、たま〜にあるよ?
Posted by at 2016年11月28日 04:01
コメントを書く
お名前:

メールアドレス:

ホームページアドレス:

コメント:


この記事へのトラックバック